Star Trek Beyond 2016 English full movie download torrent

Star Trek Beyond 2016 English full movie download torrent

Share Ratio

Seeds: 27 Peers: 47

Download

Format: MPEG-4

Format profile: Base Media

Codec ID: Isom

File size: 758 MiB

53mn 1 hours:

Total bit rate mode: Variable

Overall bit rate: 936 Kbps

Date coded: 09/08/2016 14:30:05 UTC

Marked Date: 09/08/2016 14:30:05 UTC

written application: Lite MP4 Tool

video

ID: 1

Format: AVC

Format / Info: Advanced Video Codec

Format profile: / * * /

CABAC format settings: Yes

Setting format, framed: 3 frame

Codec ID: VC1

Codec ID / Info: Advanced Video Coding

Duration: 1h 53mn

contentBit: 800 Kbps

Maximum transfer speed: 884 Kbps 3

Width: 720 pixels

Height: 410 pixels

Display aspect ratio of 16: 9

Frame rate mode: Constant

kelajuanRangka: FPS

Color Space: YUV

Chroma sampling: 4: 2: 0

Bit Depth: 8 bit

Scan type: Progressive

Bits / (Pixel * Frame):

Stream size: 652 MiB (86%)

Title: Introduced by the GPAC (Why Dalaman 5.)

Writing library: x264 core 80 r1376 3feaec2

sound

ID: 2

Format: AAC

Format / Info: Advanced Audio Codec

Profile format: LC

Codec ID:40

duration: 1 hour 53mn

Bit rate mode: Variable

Bit rate: 128 Kbps

The maximum transfer speed of 149 Kbps

Channel Rating: 1 channel

Channel positions: Front: C

sampling frequency: KHz

Compression modes: lossy

Stream size: 104 MiB (14%)

Date coded: 09/08/2016 14:30:18 UTC

Marked Date: 09/08/2016 14:30:19 UTC

– Hollywood Movie-

StarTrek out

** 2016 **

1CD CAM / x264 / AAC

Video released Flikering

Source: Unknown (thanks)

Format: Matroska

File size: 697 MiB

53mn 1 hours:

numberBit rate mode: Variable

Overall bit rate: 860 Kbps

video

Format: AVC

Format / Info: Advanced Video Codec

Format profile: / * * /

CABAC format settings: Yes

tetapanformat, frame: 16 frames

Codec ID: V_MPEG4 / ISO / AVC

53mn 1 hours:

Bit rate mode: Variable

Bit rate: 794 Kbps

Maximum transfer speed: Mbps

Width: 720 pixels

Height: 304 pixels

the aspect ratio of the display :: 1

Frame rate mode: Constant

Frame rate: (30000/1001) fps

warnaSpace: YUV

Chroma sampling: 4: 2: 0

beetDepth: 8 bit

Scan type: Progressive

Bits / (Pixel * Frame):

Stream size: 643 MiB (92%)

sound

Format: AAC

Format / Info: Advanced Audio Codec

Format profile: LC

Codec ID: A_AAC

53mn 1 hours:

Bitrate: Kbps

Channel (s): 2ch

Channel positions: Front: L R

Sample Rate: KHz

Frame Rate: fps (1024 SPF)

Compression modes: lossy

Delay over video: 10ms

potokrazmer: MiB (7%)

Standard: Yes

Chapter: None

Example: On

A DDR Rxclusive Eulogy

50 4 Votes
Get uTorrent Get uTorrent
— admin